Midway 2019 1080p BluRay x264-AAA
#1
Video 

Midway 2019 1080p BluRay x264-AAA



Midway 2019 1080p BluRay x264-AAA


[Image: 42MY.jpg]

Code:
Complete name : Midway.2019.1080p.BluRay.x264-AAA.mkv
Format : Matroska
Format version : Version 4
File size : 8.73 GiB
Duration : 2 h 18 min
Overall bit rate : 9 026 kb/s
Encoded date : UTC 2020-02-05 18:43:40
Writing application : mkvmerge v40.0.0 ('Old Town Road + Pony') 64-bit
Writing library : libebml v1.3.9 + libmatroska v1.5.2

Video
ID : 1
Format : AVC
Format/Info : Advanced Video Codec
Format profile : High@L4.1
Format settings : CABAC / 5 Ref Frames
Format settings, CABAC : Yes
Format settings, Reference frames : 5 frames
Codec ID : V_MPEG4/ISO/AVC
Duration : 2 h 18 min
Bit rate : 8 387 kb/s
Width : 1 920 pixels
Height : 808 pixels
Display aspect ratio : 2.40:1
Frame rate mode : Constant
Frame rate : 23.976 (24000/1001) FPS
Color space : YUV
Chroma subsampling : 4:2:0
Bit depth : 8 bits
Scan type : Progressive
Bits/(Pixel*Frame) : 0.225
Stream size : 8.11 GiB (93%)
Title : Midway.2019.1080p.BluRay.x264-AAA
Writing library : x264 core 159 r2991 1771b55
Encoding settings : cabac=1 / ref=5 / deblock=1:0:0 / analyse=0x3:0x113 / me=umh / subme=8 / psy=1 / psy_rd=1.00:0.00 / mixed_ref=1 / me_range=16 / chroma_me=1 / trellis=1 / 8x8dct=1 / cqm=0 / deadzone=21,11 / fast_pskip=1 / chroma_qp_offset=-2 / threads=25 / lookahead_threads=4 / sliced_threads=0 / nr=0 / decimate=1 / interlaced=0 / bluray_compat=0 / constrained_intra=0 / bframes=3 / b_pyramid=2 / b_adapt=2 / b_bias=0 / direct=3 / weightb=1 / open_gop=0 / weightp=2 / keyint=240 / keyint_min=23 / scenecut=40 / intra_refresh=0 / rc_lookahead=50 / rc=2pass / mbtree=1 / bitrate=8387 / ratetol=1.0 / qcomp=0.60 / qpmin=0 / qpmax=69 / qpstep=4 / cplxblur=20.0 / qblur=0.5 / ip_ratio=1.40 / aq=1:1.00
Default : Yes
Forced : No

Audio
ID : 2
Format : AC-3
Format/Info : Audio Coding 3
Commercial name : Dolby Digital
Codec ID : A_AC3
Duration : 2 h 18 min
Bit rate mode : Constant
Bit rate : 640 kb/s
Channel(s) : 6 channels
Channel layout : L R C LFE Ls Rs
Sampling rate : 48.0 kHz
Frame rate : 31.250 FPS (1536 SPF)
Compression mode : Lossy
Stream size : 634 MiB (7%)
Title : English Dolby Digital (AC3)
Language : English
Service kind : Complete Main
Default : Yes
Forced : No

Text
ID : 3
Format : UTF-8
Codec ID : S_TEXT/UTF8
Codec ID/Info : UTF-8 Plain Text
Duration : 2 h 8 min
Bit rate : 48 b/s
Count of elements : 1444
Stream size : 45.4 KiB (0%)
Title : English SDH
Language : English
Default : No
Forced : No

Menu
00:00:00.000 : :Chapter 01
00:09:36.659 : :Chapter 02
00:17:37.682 : :Chapter 03
00:25:13.512 : :Chapter 04
00:30:33.623 : :Chapter 05
00:39:34.289 : :Chapter 06
00:46:13.020 : :Chapter 07
00:53:48.851 : :Chapter 08
01:00:32.963 : :Chapter 09
01:09:01.971 : :Chapter 10
01:16:11.025 : :Chapter 11
01:24:48.041 : :Chapter 12
01:31:49.546 : :Chapter 13
01:42:08.873 : :Chapter 14
01:51:17.879 : :Chapter 15
02:02:21.084 : :Chapter 16

[Image: dffd2d0a41aa9db842b85dac0d0d8f2d.png]
[Image: b3009316fe698b0cfbd972f2a4cf2826.png]
[Image: ddfd74dd819498a47e5f3fd3eda6dc68.png]

[Image: Upload_GIG.png]
Code:
http://uploadgig.com/file/download/6355dEbC857bc80c/Midway.2019.1080p.BluRay.x264-AAA.part1.rar
http://uploadgig.com/file/download/0d248785Df3993e8/Midway.2019.1080p.BluRay.x264-AAA.part2.rar
http://uploadgig.com/file/download/f389b781198d808b/Midway.2019.1080p.BluRay.x264-AAA.part3.rar
http://uploadgig.com/file/download/0105a7c757fe2a30/Midway.2019.1080p.BluRay.x264-AAA.part4.rar
http://uploadgig.com/file/download/79c6c1fe99Da4552/Midway.2019.1080p.BluRay.x264-AAA.part5.rar
Buy Premium Account using our Download links. We bring you more Releases
[Image: dR8gss.gif]
Reply



MyBB SQL Error

MyBB has experienced an internal SQL error and cannot continue.

SQL Error:
1146 - Table 'tvbbbiz_backup_47c11e4e01.tvb_threadviews' doesn't exist
Query:
INSERT INTO tvb_threadviews (tid) VALUES('6309')