Roar - Tigers of Sunderbans (2014) [1CD] DVDSCR Rip Xvid Mp3
#1

Roar - Tigers of Sunderbans (2014) [1CD] DVDSCR Rip Xvid Mp3


Roar - Tigers of Sunderbans (2014) [1CD] DVDSCR Rip Xvid Mp3


[Image: iU4OXtN.png]


Code:
General
Complete name : D:\Roar - Tigers of Sunderbans.avi
Format : AVI
Format/Info : Audio Video Interleave
File size : 697 MiB
Duration : 1h 58mn
Overall bit rate : 820 Kbps

Video
ID : 0
Format : MPEG-4 Visual
Format profile : Advanced Simple@L5
Format settings, BVOP : 2
Format settings, QPel : No
Format settings, GMC : No warppoints
Format settings, Matrix : Default (H.263)
Codec ID : XVID
Codec ID/Hint : XviD
Duration : 1h 58mn
Bit rate : 714 Kbps
Width : 640 pixels
Height : 272 pixels
Display aspect ratio : 2.35:1
Frame rate : 23.976 fps
Color space : YUV
Chroma subsampling : 4:2:0
Bit depth : 8 bits
Scan type : Progressive
Compression mode : Lossy
Bits/(Pixel*Frame) : 0.171
Stream size : 608 MiB (87%)
Writing library : XviD 1.2.1 (UTC 2008-12-04)

Audio
ID : 1
Format : MPEG Audio
Format version : Version 1
Format profile : Layer 3
Mode : Joint stereo
Mode extension : MS Stereo
Codec ID : 55
Codec ID/Hint : MP3
Duration : 1h 58mn
Source duration : 1h 58mn
Bit rate mode : Constant
Bit rate : 96.0 Kbps
Channel(s) : 2 channels
Sampling rate : 32.0 KHz
Compression mode : Lossy
Stream size : 81.6 MiB (12%)
Alignment : Aligned on interleaves
Interleave, duration : 42 ms (1.00 video frame)
Writing library : LAME3.99r
Encoding settings : -m j -V 4 -q 2 -lowpass 15.1 -b 96

[Image: fKM0Wel.jpg]

[Image: euNa0Yd.jpg]


[Image: ny8dCXM.jpg]


[Image: xL83W1l.jpg]


Visit my Account to download more Games/Apps/Movies

Code:
http://rapidgator.net/file/56260b45bfe25890a696ce1155ca6ff0/Roar_-_Tigers_of_Sunderbans_(2014).rar.html
http://ul.to/did30vgx
http://www.nitroflare.com/view/6D81C3CD4D2A268

If any link is dead please let me know. I'll fix it ASAP

Backups Are Available , Dead Links can Be Replaced , Just Leave A Reply In The Thread .

Please Say Thanks and Also You Can Make Your Queries
Reply



MyBB SQL Error

MyBB has experienced an internal SQL error and cannot continue.

SQL Error:
1017 - Can't find file: 'tvb_threadviews' (errno: 2)
Query:
INSERT INTO tvb_threadviews (tid) VALUES('1115')