Daawat-E-Ishq (2014) - 1CD - DVDRip - Hindi - x264 - MP3 - Mafiaking
#1

Daawat-E-Ishq (2014) - 1CD - DVDRip - Hindi - x264 - MP3 - Mafiaking


Daawat-E-Ishq (2014) - 1CD - DVDRip - Hindi - x264 - MP3 - Mafiaking


[Image: daawat-e-ishq-movie-poster_140490139000.jpg]


Code:
Ratings: 6.4/10

GENRE: Comedy | Drama | Romance


General
Unique ID : 233754483688046749083404871485548398492 (0xAFDB79D9A03F39C0ABFB4D016158079C)
Complete name : Daawat-E-Ishq (2014) - 1CD - DVDRip - Hindi - x264 - MP3 - Mafiaking - Team TellyTNT.mkv
Format : Matroska
Format version : Version 4 / Version 2
File size : 703 MiB
Duration : 1h 58mn
Overall bit rate : 830 Kbps
Movie name : Daawat-E-Ishq (2014) - 1CD - DVDRip - Hindi - x264 - MP3 - Mafiaking - Team TellyTNT
Encoded date : UTC 2014-10-30 10:46:52
Writing application : mkvmerge v7.0.0 ('Where We Going') 64bit built on Jun 9 2014 15:16:27
Writing library : libebml v1.3.0 + libmatroska v1.4.1


Video
ID : 1
Format : AVC
Format/Info : Advanced Video Codec
Format profile : High@L4.1
Format settings, CABAC : Yes
Format settings, ReFrames : 4 frames
Codec ID : V_MPEG4/ISO/AVC
Duration : 1h 58mn
Bit rate : 700 Kbps
Width : 640 pixels
Height : 272 pixels
Display aspect ratio : 2.35:1
Frame rate mode : Constant
Frame rate : 29.970 fps
Color space : YUV
Chroma subsampling : 4:2:0
Bit depth : 8 bits
Scan type : Progressive
Bits/(Pixel*Frame) : 0.134
Stream size : 581 MiB (83%)
Title : Mafiaking
Default : Yes
Forced : No


Audio
ID : 2
Format : MPEG Audio
Format version : Version 1
Format profile : Layer 3
Mode : Joint stereo
Mode extension : MS Stereo
Codec ID : A_MPEG/L3
Codec ID/Hint : MP3
Duration : 1h 58mn
Bit rate mode : Constant
Bit rate : 128 Kbps
Channel(s) : 2 channels
Sampling rate : 48.0 KHz
Compression mode : Lossy
Delay relative to video : 181ms
Stream size : 108 MiB (15%)
Title : Mafiaking
Writing library : LAME3.99r
Language : Hindi
Default : Yes
Forced : No

[Image: 5G4RQ3a.jpg]
[Image: EixFnzu.jpg]
[Image: t96iGMX.jpg]
[Image: uRtmzgp.jpg]
[Image: RT9OYAV.jpg]
[Image: vxcXGgs.jpg]

Visit my Account to download more Games/Apps/Movies

Code:
http://ul.to/am9vnflf
http://rapidgator.net/file/fb2287f7909e0fe6ed4313279e06290c/Daawat-E-Ishq_(2014)_-_1CD_-_DVDRip_-_Hindi_-_x264_-.rar.html

If any link is dead please let me know. I'll fix it ASAP

Backups Are Available , Dead Links can Be Replaced , Just Leave A Reply In The Thread .

Please Say Thanks and Also You Can Make Your Queries
Reply



MyBB SQL Error

MyBB has experienced an internal SQL error and cannot continue.

SQL Error:
1017 - Can't find file: 'tvb_threadviews' (errno: 2)
Query:
INSERT INTO tvb_threadviews (tid) VALUES('1087')