Entertainment (2014) 720p BluRay x264 [DD 5.1CH -PGS]
#1

Entertainment (2014) 720p BluRay x264 [DD 5.1CH -PGS]


Entertainment (2014) 720p BluRay x264 [DD 5.1CH -PGS]


[Image: 1413028004_ENTERTAINMENTBLURAYf_001.jpg]


Code:
Format : Matroska
Format version : Version 4 / Version 2
File size : 4.61 GiB
Duration : 2h 19mn
Overall bit rate : 4 750 Kbps
Movie name : Entertainment (2014) 720p BluRay x264 [DD 5.1CH -PGS][SumoMan]

Video
ID : 3
Format : AVC
Format/Info : Advanced Video Codec
Format profile : High@L4.1
Format settings, CABAC : Yes
Format settings, ReFrames : 3 frames
Codec ID : V_MPEG4/ISO/AVC
Duration : 2h 19mn
Bit rate : 4 118 Kbps
Width : 1 280 pixels
Height : 544 pixels
Display aspect ratio : 2.35:1
Frame rate mode : Constant
Frame rate : 23.976 fps
Color space : YUV
Chroma subsampling : 4:2:0
Bit depth : 8 bits
Scan type : Progressive
Bits/(Pixel*Frame) : 0.247
Stream size : 3.90 GiB (85%)
Writing library : x264

Audio
ID : 2
Format : AC-3
Format/Info : Audio Coding 3
Mode extension : CM (complete main)
Format settings, Endianness : Big
Codec ID : A_AC3
Duration : 2h 19mn
Bit rate mode : Constant
Bit rate : 640 Kbps
Channel(s) : 6 channels
Channel positions : Front: L C R, Side: L R, LFE
Sampling rate : 48.0 KHz
Bit depth : 16 bits
Compression mode : Lossy
Stream size : 637 MiB (13%)
Default : Yes
Forced : No

Text
ID : 1
Format : PGS
Muxing mode : zlib
Codec ID : S_HDMV/PGS
Codec ID/Info : The same subtitle format used on BDs/HD-DVDs
Language : English
Default : Yes
Forced : No

Menu
00:00:00.000 : en:00:00:00.000
00:11:33.693 : en:00:11:33.693
00:15:20.920 : en:00:15:20.920
00:19:46.185 : en:00:19:46.185
00:25:17.266 : en:00:25:17.266
00:27:04.623 : en:00:27:04.623
00:29:57.546 : en:00:29:57.546
00:33:14.868 : en:00:33:14.868
00:43:50.086 : en:00:43:50.086
00:53:22.574 : en:00:53:22.574
00:58:21.164 : en:00:58:21.164
01:06:39.621 : en:01:06:39.621
01:13:39.040 : en:01:13:39.040
01:21:30.761 : en:01:21:30.761
01:34:15.859 : en:01:34:15.859
01:39:05.565 : en:01:39:05.565
01:47:29.443 : en:01:47:29.443
01:55:20.914 : en:01:55:20.914
01:58:06.371 : en:01:58:06.371
02:14:17.508 : en:02:14:17.508



[Image: Entertainment_2014_720p_Blu_Ray_x264_DD_5_1_CH.jpg]
[Image: Entertainment_2014_720p_Blu_Ray_x264_DD_5_1_CH.jpg]
[Image: Entertainment_2014_x264_SAP_720p_Blu_Ray_Rip_AC3.jpg]
[Image: Entertainment_2014_x264_SAP_720p_Blu_Ray_Rip_AC3.jpg]
[Image: vlcsnap_2014_10_16_15h10m33s24.png]



Visit my Account to download more Games/Apps/Movies

Code:
http://ul.to/w2g6vpwz
http://ul.to/k2bt3vf2
http://ul.to/c8ntu5yr

http://rapidgator.net/file/eaeb3bf493cfa48fcf995f60be590586/Entertainment_(2014)_720p_BluRay.part1.rar.html
http://rapidgator.net/file/82d972c1b87de8d0caaf52d4059ed922/Entertainment_(2014)_720p_BluRay.part3.rar.html
http://rapidgator.net/file/5af1824d1c54fb0d52ef9d408c8b5a14/Entertainment_(2014)_720p_BluRay.part2.rar.html

http://www.nitroflare.com/view/90FDD1F6D025671
http://www.nitroflare.com/view/6D68327043173C5
http://www.nitroflare.com/view/0FEFC51D8114D45

If any link is dead please let me know. I'll fix it ASAP

Backups Are Available , Dead Links can Be Replaced , Just Leave A Reply In The Thread .

Please Say Thanks and Also You Can Make Your Queries
Reply



MyBB SQL Error

MyBB has experienced an internal SQL error and cannot continue.

SQL Error:
1017 - Can't find file: 'tvb_threadviews' (errno: 2)
Query:
INSERT INTO tvb_threadviews (tid) VALUES('1037')