Graduation Day 1981 720p BluRay x264-SONiDO
#1

Graduation Day 1981 720p BluRay x264-SONiDO


Graduation Day 1981 720p BluRay x264-SONiDO


[Image: c1ae67c29e8d11693ab28749dd872663b19fef017d269.jpg]



Genres: Horror , Mystery , Thriller
Actors: Christopher George , Patch Mackenzie , E. Danny Murphy , E.J. Peaker , Michael Pataki , Richard Balin , Carmen Argenziano , Beverly Dixon , Virgil Frye ,
Hal Bokar , Denise Cheshire , Bill Hufsey , Linnea Quigley , Karen Abbott , Vanna White
Director: Herb Freed
Runtime: 96
Year: 1981
Plot: After a high school track runner| named Laura| suddenly dies from a heart attack after finishing a 30-second 200-meter race| a killer wearing a sweat suit and a
fencing mask begins killing off her friends on the school track team one by one. The suspects include the track coach Michaels| Laura's sister Anne who arrives in
town for the funeral| the creepy school principal Mr. Guglione| and Laura's strange boyfriend Kevin.




Code:
Video
ID                                       : 1
Format                                   : AVC
Format/Info                              : Advanced Video Codec
Format profile                           : High@L4.1
Format settings, CABAC                   : Yes
Format settings, ReFrames                : 5 frames
Codec ID                                 : V_MPEG4/ISO/AVC
Duration                                 : 1h 36mn
Bit rate                                 : 4 966 Kbps
Width                                    : 1 280 pixels
Height                                   : 720 pixels
Display aspect ratio                     : 16:9
Frame rate mode                          : Constant
Frame rate                               : 23.976 fps
Color space                              : YUV
Chroma subsampling                       : 4:2:0
Bit depth                                : 8 bits
Scan type                                : Progressive
Bits/(Pixel*Frame)                       : 0.225
Stream size                              : 3.26 GiB (75%)
Writing library                          : x264 core 142 r2479 dd79a61
Encoding settings                        : cabac=1 / ref=5 / deblock=1:0:0 / analyse=0x3:0x133 / me=umh / subme=7 / psy=1 / psy_rd=1.00:0.00 / mixed_ref=1 / me_range=16 / chroma_me=1 / trellis=1 / 8x8dct=1 / cqm=0 / deadzone=21,11 / fast_pskip=0 / chroma_qp_offset=-2 / threads=12 / lookahead_threads=2 / sliced_threads=0 / nr=0 / decimate=1 / interlaced=0 / bluray_compat=0 / constrained_intra=0 / bframes=3 / b_pyramid=2 / b_adapt=2 / b_bias=0 / direct=3 / weightb=1 / open_gop=0 / weightp=2 / keyint=250 / keyint_min=23 / scenecut=40 / intra_refresh=0 / rc_lookahead=50 / rc=2pass / mbtree=1 / bitrate=4966 / ratetol=1.0 / qcomp=0.60 / qpmin=0 / qpmax=69 / qpstep=4 / cplxblur=20.0 / qblur=0.5 / ip_ratio=1.40 / aq=1:1.00
Language                                 : English
Default                                  : Yes
Forced                                   : No
DURATION                                 : 01:36:27.365000000
NUMBER_OF_FRAMES                         : 138758
NUMBER_OF_BYTES                          : 3592862312
_STATISTICS_WRITING_APP                  : mkvmerge v7.0.0 (\'Where We Going\') 32bit built on Jun  9 2014 15:08:34
_STATISTICS_WRITING_DATE_UTC             : 2014-10-15 07:33:14
_STATISTICS_TAGS                         : BPS DURATION NUMBER_OF_FRAMES NUMBER_OF_BYTES

Audio
ID                                       : 2
Format                                   : DTS
Format/Info                              : Digital Theater Systems
Mode                                     : 16
Format settings, Endianness              : Big
Codec ID                                 : A_DTS
Duration                                 : 1h 36mn
Bit rate mode                            : Constant
Bit rate                                 : 1 509 Kbps
Channel(s)                               : 2 channels
Channel positions                        : Front: L R
Sampling rate                            : 48.0 KHz
Bit depth                                : 24 bits
Compression mode                         : Lossy
Stream size                              : 1.02 GiB (23%)
Language                                 : English
Default                                  : Yes
Forced                                   : No

Menu
00:00:00.000                             : en:00:00:00.000
00:07:32.577                             : en:00:07:32.577
00:15:59.542                             : en:00:15:59.542
00:26:04.855                             : en:00:26:04.855
00:34:52.382                             : en:00:34:52.382
00:43:52.755                             : en:00:43:52.755
00:53:09.144                             : en:00:53:09.144
01:03:06.950                             : en:01:03:06.950
01:12:51.909                             : en:01:12:51.909
01:21:50.322                             : en:01:21:50.322
01:28:15.081                             : en:01:28:15.081
01:34:51.603                             : en:01:34:51.603

Visit my Account to download more Games/Apps/Movies

Code:
http://ul.to/ztzsbljz
http://ul.to/zhk222xf
http://ul.to/7qziopgn

http://rapidgator.net/file/e41ca67a35a2bd56abc6e8457c2128c0/sonido-gd-720p.part2.rar.html
http://rapidgator.net/file/afb77ff6856d1a090678cccc221b4ed7/sonido-gd-720p.part1.rar.html
http://rapidgator.net/file/4e30dc812152d714fbfa880f9a2486be/sonido-gd-720p.part3.rar.html

If any link is dead please let me know. I'll fix it ASAP

Backups Are Available , Dead Links can Be Replaced , Just Leave A Reply In The Thread .

Please Say Thanks and Also You Can Make Your Queries
Reply



MyBB SQL Error

MyBB has experienced an internal SQL error and cannot continue.

SQL Error:
1017 - Can't find file: './tvbbbiz_backup_47c11e4e01/tvb_threadviews.MYI' (errno: 2 "No such file or directory")
Query:
INSERT INTO tvb_threadviews (tid) VALUES('1019')